PDA

Visualizza versione completa : Mp3 90Mb e .CUE


NS-1
15-06-2004, 21.24.20
Ciao a tutti,
ho un file mp3 da circa 90 Mb e un file con estensione .cue con all'interno questo:

PERFORMER "XXXXXXXXXXXXXXXX"
TITLE "XXXXXXXXXXXXXXXXXXXXXXXXXXXXXXXXXXXXXXX"
FILE "XXXXXXXXXXXXXXXXXXXXXXXX" MP3
TRACK 01 AUDIO
TITLE "XXXXXX"
PERFORMER "XXXXXXXXXXXX"
INDEX 01 00:00:00
TRACK 02 AUDIO
TITLE "XXXXXXXXXXXXXXXXXXXX)"
PERFORMER "XXXXXXXXXXXX"
INDEX 00 04:23:57
INDEX 01 04:25:57
TRACK 03 AUDIO
TITLE "XXXXXXXXXXXXXX"
PERFORMER "XXXXXXXXXXXXXXXXX"
INDEX 00 08:23:42
INDEX 01 08:25:42

... e cosė via fino alla traccia 18

come posso masterizzare il mio mp3 spezzando le canzoni ai tempi indicati nel file .cue?

grazie

Ns-1

gardy77
16-06-2004, 09.50.32
Ti consiglio Musicutter fa tutto lui in automatico! ;)

Gigi75
16-06-2004, 10.20.28
gardy ha ragione, ma non ti fidare dell'automatico, ascolta sempre il fine traccia e lima i tempi a mano.

Se vuoi trovare altri cuesheet fai una ricerca qui (http://www.regeert.nl/cuesheet/)

bYe;)

NS-1
16-06-2004, 18.34.09
grazie mille ragazzi...

provo e poi vi faccio sapere


Ns-1

davlak
16-06-2004, 18.44.35
Se hai Nero puoi pure fare scrivi immagine e apri il cue.
Se poi vuoi provare il risultato senza bruciare un CD, seleziona l'image drive come masterizzatore, salva come nrg e montala sul drive virtuale di Nero...cosė senti come suona senza masterizzarla.

NS-1
21-06-2004, 13.45.29
grazie...
ci sono riuscito....


:)